飘花电影网
今日最新电影今日最新电视剧加入收藏
最新电影下载就上飘花电影网 vod.cnzol.com
当前位置:首页>恐怖片>>护士3D/护士/恐怖护士下载页面

护士3D/护士/恐怖护士720p中英双字

护士3D/护士/恐怖护士
片名:护士3D/护士/恐怖护士
武松国际:2014-03-01
护士3D/护士/恐怖护士迅雷下载地址和剧情:
护士3D/护士/恐怖护士下载地址 请见页面最底部

◎译  名 护士3D/护士/恐怖护士
◎片  名 Nurse 3D/Nurse/ Nurse 3-D
◎年  代 2013
◎国  家 美国
◎类  别 惊悚
◎语  言 英语
◎字  幕 英文/中文
◎IMDB评分 6.3/10 from 153 users
◎IMDB链接http://www.imdb.com/title/tt1913166
◎片  长 1hr 23mn
◎导  演 道格拉斯·阿诺科斯基 Douglas Aarniokoski
◎主  演 帕兹·德拉维尔塔 Paz de la Huerta ....Abby Russell
      卡特里娜·宝登 Katrina Bowden ....Danni
      贾德·尼尔森 Judd Nelson ....Dr. Morris
      科宾·布鲁 Corbin Bleu ....Steve
      波瑞斯·科乔 Boris Kodjoe ....Detective John Rogan
      奈希·纳什 Niecy Nash ....Regina
      Adam Herschman ....Jared
      劳洛·查坦德 Lauro Chartrand ....Security Guard
      Melanie Scrofano ....Rachel Adams
      Marc Andrew Smith ....Doctor
      Layton Morrison ....Truck Driver
      Yulia Lukin ....Larry's date
      Joe MacLeod ....EMT #2
      Jeff Pangman ....Dr. Robert Price
      Jake Michaels ....New Dad
      Patrick Kwok-Choon ....EMT
      Lori Pearlstein ....Support Speaker
      Amanda Armagon ....Key Largo receptionist (uncredited)
      Brittany Adams ....Young Nurse
      Michael Therriault ....Anatomy Professor
      Stephane Rodrigue ....ER Doctor
      Vanessa Lai Fox ....Nurse Hansen
      Katia Peel ....Young Abby
      Adam Benish ....Peter Larson (as Adam Benish)
      Blake Mawson ....Bloody Boyfriend On Stretcher
电影介绍 故事讲述的是邪恶护士的暗黑故事,主人公艾比·罗素(帕兹·德拉维尔塔饰)是一名护士长,白天她看起来童叟无欺,但每到晚上,她就露出真面目,以性感诱骗男人,用残酷的死亡来暴露他们猥琐的真面目。新来的年轻护士丹妮(卡特里娜·宝登饰)成为艾比眼中的猎物,一夜在酒吧狂欢之后,丹妮被艾比带回家中一番云雨。然而已有男友的丹妮却拒绝了艾比的示爱,而后一系列惊悚的事件开始围绕她发生。丹妮开始怀疑这一切与艾比有关……
Format : Matroska
File size : 1.96 GiB
Duration : 1h 23mn
Overall bit rate : 3 342 Kbps
Encoded date : UTC 2010-02-22 21:41:31
Writing application : mkvmerge v5.9.0 ('On The Loose') built on Dec 9 2012 15:37:01
Writing library : libebml v1.3.0 + libmatroska v1.4.0
Video #1
ID : 1
Format : AVC
Format/Info : Advanced Video Codec
Format profile :[email protected]
Format settings, CABAC : Yes
Format settings, ReFrames : 4 frames
Format settings, GOP : M=4, N=52
Muxing mode : Header stripping
Codec ID : V_MPEG4/ISO/AVC
Duration : 1h 23mn
Bit rate : 3 000 Kbps
Width : 1 280 pixels
Height : 530 pixels
Display aspect ratio : 2.40:1
Frame rate : 23.976 fps
Color space : YUV
Chroma subsampling : 4:2:0
Bit depth : 8 bits
Scan type : Progressive
Bits/(Pixel*Frame) : 0.184
Stream size : 1.69 GiB (87%)
Writing library : x264 core 116 r2074 2641b9e

Audio #2
ID : 2
Format : AC-3
Format/Info : Audio Coding 3
Mode extension : CM (complete main)
Muxing mode : Header stripping
Codec ID : A_AC3
Duration : 1h 23mn
Bit rate mode : Constant
Bit rate : 384 Kbps
Channel(s) : 6 channels
Channel positions : Front: L C R, Side: L R, LFE
Sampling rate : 48.0 KHz
Bit depth : 16 bits
Compression mode : Lossy
Stream size : 230 MiB (11%)
Language : English


[下载地址]:      

请关注官方微信号"火辣影评",快速查找影片,查看精彩影评!
因版权政策,网站随时可能被关闭,建议您微信关注左侧二维码,以获取最新网址
版本说明:[BD / HD:高清版] --1080P清晰度高于720P
ftp链接不要直接鼠标左键点击!正确的下载方法: 鼠标移到 下载地址上 点击右键 复制链接地址 在迅雷中 新建任务 粘贴进去 确定 点击下载


磁力链:推荐使用uTorrent下载
原链接来自于猫扑电影网 maopu.tv

下载提示"应版权方要求,文件无法下载。" 以及"任务出错"的各位看过来!!! 点我查看解决办法
网站所有资源均免费提供,发布第一时间均可免费下载,
迅雷因版权不能下, 是迅雷单方面屏蔽了资源,不是我们的问题.

喜欢看护士3D/护士/恐怖护士电影的你也许还喜欢看:
最新电影下载【请一定要用(迅雷7)】下载额!安装完迅雷后-请重新刷新页面_下载不了电影__请看这里
恐怖片下载排行
  1. 1地狱之门:耶路撒冷(恐怖片)
  2. 27500航班(恐怖片)
  3. 3三十一(恐怖片)
  4. 4鲨滩/绝鲨岛(恐怖片)
  5. 5一路向南(恐怖片)
  6. 6让她走/双生姊魅(恐怖片)
  7. 7女巫(恐怖片)
  8. 8魔宫魅影(恐怖片)
  9. 9惊门(恐怖片)
  10. 10陀地驱魔人(恐怖片)
恐怖片猜你喜欢看
  1. 1逃出食人农场(恐怖片)
  2. 2黑森灵(恐怖片)
  3. 3悲剧女孩(恐怖片)
  4. 4短柄斧4(恐怖片)
  5. 5承诺/尸约(恐怖片)
  6. 6疯狂父母/爸妈也疯狂(恐怖片)
  7. 7苌山虎(恐怖片)
  8. 8密室逃脱(恐怖片)
  9. 9七月半3:灵触第七感(恐怖片)
  10. 10电锯惊魂8:竖锯(恐怖片)
广告商
2006-2010 飘花免费 电影下载站 vod.cnzol.com. All Rights Reserved 电影下载网站 免费就在飘花网
下载电影就来飘花电影网,本站资源均为网络免费资源搜索机器人自动搜索的结果,本站只提供最新电影下载,并不存放任何资源。
所有视频版权归原权利人,将于24小时内删除!我们强烈建议所有影视爱好者购买正版音像制品!
本站拒绝一切非法,淫秽电影,欢迎大家监督 有问题可联系管理员
武松娱乐